Анимация, Nokia 58xx, Семейный Просмотров: 6677

Гадкий я 

30 июня 2011 Опубликовал: admin

  • Обновлено5.11.2011 - 18:04

    Мультфильмы для смартфонов и КПК

    Гадкий я

    Гадкий снаружи, но добрый внутри Грю намерен, тем не менее, закрепить за собой статус главного архизлодея в мире, для чего он решает выкрасть Луну при помощи созданной им армии миньонов. Дело осложняют конкуренты, вставляющие высокотехнические палки в колеса, и семейные обстоятельства в виде трех сироток, о которых Грю вынужден заботиться.

    Год выпуска: 2010
    Страна: США
    Жанр: мультфильм, фэнтези, комедия, приключения, семейный
    Продолжительность: 95 минут
    Перевод: дубляж

    Режиссер: Пьер Коффен, Крис Рено

    Видео: 640x360 , 23.976 fps, MPEG-4, ~550 Kbps
    Аудио: 48 kHz, AAC, stereo, ~96 Kbps

    Media Info
    Format : MPEG-4
    Format profile : Base Media / Version 2
    Codec ID : mp42
    File size : 440 MiB
    Duration : 1h 34mn
    Overall bit rate : 648 Kbps
    Encoded date : UTC 2011-06-29 05:03:01
    Tagged date : UTC 2011-06-29 05:03:01

    Video
    ID : 201
    Format : MPEG-4 Visual
    Format profile : Advanced Simple@L5
    Format settings, BVOP : No
    Format settings, QPel : No
    Format settings, GMC : No warppoints
    Format settings, Matrix : Default (H.263)
    Codec ID : 20
    Duration : 1h 34mn
    Bit rate mode : Variable
    Bit rate : 550 Kbps
    Maximum bit rate : 2 559 Kbps
    Width : 640 pixels
    Height : 360 pixels
    Display aspect ratio : 16:9
    Frame rate mode : Variable
    Frame rate : 23.906 fps
    Original frame rate : 23.976 fps
    Minimum frame rate : 0.285 fps
    Maximum frame rate : 23.976 fps
    Color space : YUV
    Chroma subsampling : 4:2:0
    Bit depth : 8 bits
    Scan type : Progressive
    Bits/(Pixel*Frame) : 0.100
    Stream size : 373 MiB (85%)
    Title : Imported with GPAC 0.4.6-DEV (build 1)
    Writing library : XviD 1.2.1 (UTC 2008-12-04)
    Encoded date : UTC 2011-06-29 05:03:01
    Tagged date : UTC 2011-06-29 05:03:25

    Audio
    ID : 101
    Format : AAC
    Format/Info : Advanced Audio Codec
    Format version : Version 4
    Format profile : LC
    Format settings, SBR : No
    Codec ID : 40
    Duration : 1h 34mn
    Bit rate mode : Variable
    Bit rate : 96.0 Kbps
    Maximum bit rate : 159 Kbps
    Channel(s) : 2 channels
    Channel positions : Front: L R
    Sampling rate : 48.0 KHz
    Stream size : 65.0 MiB (15%)
    Encoded date : UTC 2011-06-29 05:03:22
    Tagged date : UTC 2011-06-29 05:03:25

    Папка со скриншотами

    Скачать


    Ещё похожие - Ранго (расширенная версия), Как приручить дракона

    Вернуться на главную




    Добро пожаловать на наш сайт!
    Здесь вы можете скачать мобильное видео в формате mp4 для просмотра на ваших смартфонах, КПК, Sony PSP, Nokia 5800 XpressMusic и др. Бесплатно и без регистрации! Предоставленные mp4 фильмы можно скачать с файлообменника. Фильмы для смартфона предоставлены в самых различных жанрах и стилях.Фильмы отличного качества. Также можете почитать статьи о различных гаджетах и фильмах. Если вы знаете название фильма, который вам нужен, то удобно использовать поиск. Загляните в категорию сериалы, не пожалеете. Регистрация не нужна. Оставляя комментарии, пожалуйста, воздержитесь от ненормативной лексики.
    Приятного просмотра!

    Подписка RSS Почтовая подписка

    Виджет для Яндекса


    Опросы

    Умеете ли вы кодировать видео для своих гаджетов?
    Да (165)
    Нет (298)
    Что такое гаджет? (87)

    Как конвертировать видео для смартфонов Нокиа 5800, 5250, N97, 5530, 5228, X6, C6 и других похожих смартфонов


    Реклама:





    Все о фильме Хоббит новости, актеры, дата выхода!
    Собираетесь в церковь? Сначала почитайте правила поведения в храме, чтобы не выглядеть глупо.

    Комментарии

    Вышел новейший смартфон Nokia N950 на MeeGo.
    Автор eanalrola (04.01.2012)
    Актуально, а главное познавательно. Здорово!!!
    Страсти Христовы
    Автор diatrankeyflux (28.12.2011)
    Дело написано, вот такие тематические статьи очень интересно прочесть.
    Фаренгейт 9/11
    Автор eabamexas (20.12.2011)
    Собираю рейтинг информационных сайтов по этой теме. Мои поздравления -...
    Как приручить дракона
    Автор paradise (09.12.2011)
    Спасибо за интересный ресурс, всегда захожу на ваше странички в свобод...
    Курьер
    Автор levitra (05.12.2011)
    hi all, what do you think about South Park?
    Обзор Nokia X6
    Автор мимо шел (19.11.2011)
    делали бы экранчик хоть 3,5 дюйма, а то маловато будет