Воины света 

9 июня 2011 Опубликовал: admin

  • Обновлено9.11.2011 - 20:59

    Кино для смартфонов и КПК

    Воины света

    2019 год. Глобальная эпидемия превратила большинство людей в вампиров, поставив человечество на грань вымирания. Безмятежное будущее не светит, впрочем, и кровососам: в условиях дефицита крови они вынуждены холить и лелеять каждую оставшуюся в живых человеческую особь — либо синтезировать заменитель крови. Противостоять концу света пытается группа ученых, ищущая средства для борьбы с вампирами.

    Человеческая кровь, продукт ценнее золота. Но сами вампиры не думали о будущем, когда обращали всех людей. Они не думали, что настанет время кризиса и голодания. Они ищут способ выжить в науке. Ищут способ обходиться без людей, которых осталось так мало. Но они и не догадываются, что люди не собираются отдавать им свое место под солнцем. Человечество всегда найдет способ выжить, даже из безвыходной ситуации.

    Год выпуска: 2009
    Страна: США, Австралия
    Жанр: ужасы, боевик, триллер
    Продолжительность: 98 минут
    Перевод: дубляж

    Режиссер: Майкл Спириг, Питер Спириг

    Видео: 640x280 , 23.976 fps, MPEG-4, ~600 Kbps
    Аудио: 44 kHz, AAC, stereo, ~96 Kbps

    Media Info
    Format : MPEG-4
    Format profile : Base Media / Version 2
    Codec ID : mp42
    File size : 489 MiB
    Duration : 1h 38mn
    Overall bit rate : 697 Kbps
    Encoded date : UTC 2010-10-06 16:33:25
    Tagged date : UTC 2010-10-06 16:33:25

    Video
    ID : 201
    Format : MPEG-4 Visual
    Format profile : Simple@L1
    Format settings, BVOP : No
    Format settings, QPel : No
    Format settings, GMC : No warppoints
    Format settings, Matrix : Default (H.263)
    Codec ID : 20
    Duration : 1h 37mn
    Bit rate mode : Variable
    Bit rate : 600 Kbps
    Maximum bit rate : 2 077 Kbps
    Width : 640 pixels
    Height : 280 pixels
    Display aspect ratio : 2.25:1
    Frame rate mode : Constant
    Frame rate : 23.976 fps
    Color space : YUV
    Chroma subsampling : 4:2:0
    Bit depth : 8 bits
    Scan type : Progressive
    Bits/(Pixel*Frame) : 0.140
    Stream size : 420 MiB (86%)
    Title : Imported with GPAC 0.4.6-DEV (build 1)
    Writing library : Lavc52.61.0
    Encoded date : UTC 2010-10-06 16:33:25
    Tagged date : UTC 2010-10-06 16:33:51

    Audio
    ID : 101
    Format : AAC
    Format/Info : Advanced Audio Codec
    Format version : Version 4
    Format profile : LC
    Format settings, SBR : No
    Codec ID : 40
    Duration : 1h 38mn
    Bit rate mode : Variable
    Bit rate : 96.0 Kbps
    Maximum bit rate : 107 Kbps
    Channel(s) : 2 channels
    Channel positions : Front: L R
    Sampling rate : 44.1 KHz
    Stream size : 67.3 MiB (14%)
    Encoded date : UTC 2010-10-06 16:33:48
    Tagged date : UTC 2010-10-06 16:33:51

    Папка со скриншотами

    Скачать


    Ещё похожие - 2012, Трон: Наследие

    Вернуться на главную




    Добро пожаловать на наш сайт!
    Здесь вы можете скачать мобильное видео в формате mp4 для просмотра на ваших смартфонах, КПК, Sony PSP, Nokia 5800 XpressMusic и др. Бесплатно и без регистрации! Предоставленные mp4 фильмы можно скачать с файлообменника. Фильмы для смартфона предоставлены в самых различных жанрах и стилях.Фильмы отличного качества. Также можете почитать статьи о различных гаджетах и фильмах. Если вы знаете название фильма, который вам нужен, то удобно использовать поиск. Загляните в категорию сериалы, не пожалеете. Регистрация не нужна. Оставляя комментарии, пожалуйста, воздержитесь от ненормативной лексики.
    Приятного просмотра!

    Подписка RSS Почтовая подписка

    Виджет для Яндекса


    Опросы

    Умеете ли вы кодировать видео для своих гаджетов?
    Да (166)
    Нет (304)
    Что такое гаджет? (87)

    Как конвертировать видео для смартфонов Нокиа 5800, 5250, N97, 5530, 5228, X6, C6 и других похожих смартфонов


    Реклама:





    Все о фильме Хоббит новости, актеры, дата выхода!
    Собираетесь в церковь? Сначала почитайте правила поведения в храме, чтобы не выглядеть глупо.

    Комментарии

    Вышел новейший смартфон Nokia N950 на MeeGo.
    Автор eanalrola (04.01.2012)
    Актуально, а главное познавательно. Здорово!!!
    Страсти Христовы
    Автор diatrankeyflux (28.12.2011)
    Дело написано, вот такие тематические статьи очень интересно прочесть.
    Фаренгейт 9/11
    Автор eabamexas (20.12.2011)
    Собираю рейтинг информационных сайтов по этой теме. Мои поздравления -...
    Как приручить дракона
    Автор paradise (09.12.2011)
    Спасибо за интересный ресурс, всегда захожу на ваше странички в свобод...
    Курьер
    Автор levitra (05.12.2011)
    hi all, what do you think about South Park?
    Обзор Nokia X6
    Автор мимо шел (19.11.2011)
    делали бы экранчик хоть 3,5 дюйма, а то маловато будет