Nokia 58xx, Комедия, Криминал Просмотров: 1727

Пипец 

5 июня 2011 Опубликовал: admin

  • Обновлено6.05.2012 - 10:55

    Кино для смартфонов и КПК

    Пипец

    Главный герой — школьник Дэйв Лизевски, который, вырядившись в костюм супергероя, пытается бороться с преступниками, хотя не обладает для этого никакими способностями. Параллельно два персонажа — 11-летняя девочка, которая крошит гангстеров мечом и сынок гангстера, ведущий собственное расследование, пытаются выяснить личность Дэйва…

    Год выпуска: 2010
    Страна: США, Великобритания
    Жанр: комедия, криминал
    Продолжительность: 117 минут
    Перевод: многоголосый, профессиональный

    Режиссер: Мэттью Вон

    Видео: 640x272, 23.976 fps, MPEG-4 ~600 kbps
    Аудио: 44,1 kHz, AAC, stereo, ~96 kbps[/p]

    Media Info
    Format : MPEG-4
    Format profile : Base Media / Version 2
    Codec ID : mp42
    File size : 588 MiB
    Duration : 1h 57mn
    Overall bit rate : 698 Kbps
    Encoded date : UTC 2010-08-17 20:10:38
    Tagged date : UTC 2010-08-17 20:10:38

    Video
    ID : 201
    Format : MPEG-4 Visual
    Format profile : Simple@L1
    Format settings, BVOP : No
    Format settings, QPel : No
    Format settings, GMC : No warppoints
    Format settings, Matrix : Default (H.263)
    Codec ID : 20
    Duration : 1h 57mn
    Bit rate mode : Variable
    Bit rate : 600 Kbps
    Maximum bit rate : 1 892 Kbps
    Width : 640 pixels
    Height : 272 pixels
    Display aspect ratio : 2.35:1
    Frame rate mode : Constant
    Frame rate : 23.976 fps
    Color space : YUV
    Chroma subsampling : 4:2:0
    Bit depth : 8 bits
    Scan type : Progressive
    Bits/(Pixel*Frame) : 0.144
    Stream size : 505 MiB (86%)
    Title : Imported with GPAC 0.4.6-DEV (build 1)
    Writing library : Lavc52.61.0
    Encoded date : UTC 2010-08-17 20:10:38
    Tagged date : UTC 2010-08-17 20:11:18

    Audio
    ID : 101
    Format : AAC
    Format/Info : Advanced Audio Codec
    Format version : Version 4
    Format profile : LC
    Format settings, SBR : No
    Codec ID : 40
    Duration : 1h 57mn
    Bit rate mode : Variable
    Bit rate : 96.0 Kbps
    Maximum bit rate : 104 Kbps
    Channel(s) : 2 channels
    Channel positions : Front: L R
    Sampling rate : 44.1 KHz
    Stream size : 80.9 MiB (14%)
    Encoded date : UTC 2010-08-17 20:11:14
    Tagged date : UTC 2010-08-17 20:11:18

    Скачать
    Скачать сэмпл


    Ещё похожие - Хаос, Ни за, ни против (а совсем наоборот), Из Парижа с любовью

    Вернуться на главную




    Добро пожаловать на наш сайт!
    Здесь вы можете скачать мобильное видео в формате mp4 для просмотра на ваших смартфонах, КПК, Sony PSP, Nokia 5800 XpressMusic и др. Бесплатно и без регистрации! Предоставленные mp4 фильмы можно скачать с файлообменника. Фильмы для смартфона предоставлены в самых различных жанрах и стилях.Фильмы отличного качества. Также можете почитать статьи о различных гаджетах и фильмах. Если вы знаете название фильма, который вам нужен, то удобно использовать поиск. Загляните в категорию сериалы, не пожалеете. Регистрация не нужна. Оставляя комментарии, пожалуйста, воздержитесь от ненормативной лексики.
    Приятного просмотра!

    Подписка RSS Почтовая подписка

    Виджет для Яндекса


    Опросы

    Умеете ли вы кодировать видео для своих гаджетов?
    Да (165)
    Нет (298)
    Что такое гаджет? (87)

    Как конвертировать видео для смартфонов Нокиа 5800, 5250, N97, 5530, 5228, X6, C6 и других похожих смартфонов


    Реклама:





    Все о фильме Хоббит новости, актеры, дата выхода!
    Собираетесь в церковь? Сначала почитайте правила поведения в храме, чтобы не выглядеть глупо.

    Комментарии

    Вышел новейший смартфон Nokia N950 на MeeGo.
    Автор eanalrola (04.01.2012)
    Актуально, а главное познавательно. Здорово!!!
    Страсти Христовы
    Автор diatrankeyflux (28.12.2011)
    Дело написано, вот такие тематические статьи очень интересно прочесть.
    Фаренгейт 9/11
    Автор eabamexas (20.12.2011)
    Собираю рейтинг информационных сайтов по этой теме. Мои поздравления -...
    Как приручить дракона
    Автор paradise (09.12.2011)
    Спасибо за интересный ресурс, всегда захожу на ваше странички в свобод...
    Курьер
    Автор levitra (05.12.2011)
    hi all, what do you think about South Park?
    Обзор Nokia X6
    Автор мимо шел (19.11.2011)
    делали бы экранчик хоть 3,5 дюйма, а то маловато будет