Nokia 58xx, Комедия, Драма, Наше кино Просмотров: 3874

Курьер 

27 августа 2011 Опубликовал: andre

  • Обновлено4.11.2011 - 18:31

    Мобильное видео для смартфона и КПК

    Курьер

    "Курьер" - это удивительный фильм. Сейчас таких почти не делают. На первый взгляд вроде ничего особенного, но цепляет.

    Иван, закончив школу, ждёт призыва в армию. Чтобы не сидеть у матери на шее, он устраивается работать курьером в одну из редакций. У пацана прямо дар какой-то превращать рядовое событие чуть ли не в катастрофу. Иногда это весело, иногда - не очень. Окружающие Ивана так называемые взрослые вынуждены к этому приспосабливаться..


    Год выпуска: 1986
    Страна: СССР
    Жанр: драма, мелодрама, комедия
    Продолжительность: 87 минут
    Режиссер: Карен Шахназаров
    Актеры: Федор Дунаевский, Анастасия Немоляева, Олег Басилашвили, Инна Чурикова, Светлана Крючкова, Александр Панкратов-Черный, Владимир Меньшов, Алевтина Евдокимова, Евдокия Урусова, Владимир Смирнов


    Видео: 640x272 , 23.976 fps, MPEG-4, ~600 Kbps
    Аудио: 48 kHz, AAC, stereo, ~96 Kbps


    Media Info
    Format : MPEG-4
    Format profile : Base Media / Version 2
    Codec ID : mp42
    File size : 436 MiB
    Duration : 1h 28mn
    Overall bit rate : 688 Kbps
    Encoded date : UTC 2011-08-24 12:49:28
    Tagged date : UTC 2011-08-24 12:49:28

    Video
    ID : 201
    Format : MPEG-4 Visual
    Format profile : Advanced Simple@L5
    Format settings, BVOP : No
    Format settings, QPel : No
    Format settings, GMC : No warppoints
    Format settings, Matrix : Default (H.263)
    Codec ID : 20
    Duration : 1h 27mn
    Bit rate mode : Variable
    Bit rate : 600 Kbps
    Maximum bit rate : 3 420 Kbps
    Width : 640 pixels
    Height : 272 pixels
    Display aspect ratio : 2.35:1
    Frame rate mode : Variable
    Frame rate : 23.812 fps
    Original frame rate : 23.976 fps
    Minimum frame rate : 0.413 fps
    Maximum frame rate : 23.976 fps
    Color space : YUV
    Chroma subsampling : 4:2:0
    Bit depth : 8 bits
    Scan type : Progressive
    Bits/(Pixel*Frame) : 0.145
    Stream size : 375 MiB (86%)
    Title : Imported with GPAC 0.4.6-DEV (build 1)
    Writing library : XviD 1.2.1 (UTC 2008-12-04)
    Encoded date : UTC 2011-08-24 12:49:28
    Tagged date : UTC 2011-08-24 12:49:57

    Audio
    ID : 101
    Format : AAC
    Format/Info : Advanced Audio Codec
    Format version : Version 4
    Format profile : LC
    Format settings, SBR : No
    Codec ID : 40
    Duration : 1h 28mn
    Bit rate mode : Variable
    Bit rate : 93.8 Kbps
    Maximum bit rate : 141 Kbps
    Channel(s) : 2 channels
    Channel positions : Front: L R
    Sampling rate : 48.0 KHz
    Stream size : 59.5 MiB (14%)
    Encoded date : UTC 2011-08-24 12:49:54
    Tagged date : UTC 2011-08-24 12:49:57

    Папка со скриншотами

    Скачать


    Ещё похожие - Асса, Мусорщик



    Каталог сайтов с прямыми линками, добавить сайт

    Вернуться на главную




    #1

    levitra

    hi all, what do you think about South Park?
    Добро пожаловать на наш сайт!
    Здесь вы можете скачать мобильное видео в формате mp4 для просмотра на ваших смартфонах, КПК, Sony PSP, Nokia 5800 XpressMusic и др. Бесплатно и без регистрации! Предоставленные mp4 фильмы можно скачать с файлообменника. Фильмы для смартфона предоставлены в самых различных жанрах и стилях.Фильмы отличного качества. Также можете почитать статьи о различных гаджетах и фильмах. Если вы знаете название фильма, который вам нужен, то удобно использовать поиск. Загляните в категорию сериалы, не пожалеете. Регистрация не нужна. Оставляя комментарии, пожалуйста, воздержитесь от ненормативной лексики.
    Приятного просмотра!

    Подписка RSS Почтовая подписка

    Виджет для Яндекса


    Опросы

    Умеете ли вы кодировать видео для своих гаджетов?
    Да (165)
    Нет (298)
    Что такое гаджет? (87)

    Как конвертировать видео для смартфонов Нокиа 5800, 5250, N97, 5530, 5228, X6, C6 и других похожих смартфонов


    Реклама:





    Все о фильме Хоббит новости, актеры, дата выхода!
    Собираетесь в церковь? Сначала почитайте правила поведения в храме, чтобы не выглядеть глупо.

    Комментарии

    Вышел новейший смартфон Nokia N950 на MeeGo.
    Автор eanalrola (04.01.2012)
    Актуально, а главное познавательно. Здорово!!!
    Страсти Христовы
    Автор diatrankeyflux (28.12.2011)
    Дело написано, вот такие тематические статьи очень интересно прочесть.
    Фаренгейт 9/11
    Автор eabamexas (20.12.2011)
    Собираю рейтинг информационных сайтов по этой теме. Мои поздравления -...
    Как приручить дракона
    Автор paradise (09.12.2011)
    Спасибо за интересный ресурс, всегда захожу на ваше странички в свобод...
    Курьер
    Автор levitra (05.12.2011)
    hi all, what do you think about South Park?
    Обзор Nokia X6
    Автор мимо шел (19.11.2011)
    делали бы экранчик хоть 3,5 дюйма, а то маловато будет