Танцующий с волками 

14 июня 2011 Опубликовал: sinus

  • Обновлено30.11.2013 - 13:03

    Фильм для смартфона и КПК

    Танцующий с волками

    Действие фильма происходит в 19-м веке, во время гражданской войны в США. Данбар оказывается в заброшенном форте в штате Дакота, где сначала заводит дружбу с волками, а затем и с индейцами, изучает их культуру и обычаи. Он влюбляется в девушку, правда, белую. Но вот приближается регулярная армия, и Данбару приходится делать решающий выбор.

    Гражданская война в Америке заставляет лейтенанта Джона Данбара расстаться с последними иллюзиями, и во время очередного боя он предпринимает попытку самоубийства. Однако попытка оказывается неудачной, и сразу после этого Данбар совершает геройский поступок, в награду за который ему предлагают любой пост по его выбору. Он решает отправиться подальше от цивилизации, на Дикий Запад. После некоторого периода отшельничества Джон встречается с дружелюбными аборигенами-соседями и постепенно добивается их уважения тем, что сам потихоньку начинает превращаться в индейца. По ходу дела он охотиться на бизонов, влюбляется в белую женщину, проживающую с индейцами сиу в их лагере, и помогает своим новым соплеменникам в их постоянных стычках с разодетыми в перья недружественными пауни.

    Garcinia Cambogia
    Год выпуска: 1990
    Страна: США, Великобритания
    Жанр: драма, приключения, вестерн
    Продолжительность: 236 минут
    Перевод: два голоса, закадровый

    Режиссер: Кевин Костнер

    Видео: 640x272 , 23.976 fps, MPEG-4, ~650 Kbps
    Аудио: 44 kHz, AAC, stereo, ~96 Kbps

    Media Info
    Format : MPEG-4
    Format profile : Base Media / Version 2
    Codec ID : mp42
    File size : 1.24 GiB
    Duration : 3h 56mn
    Overall bit rate : 748 Kbps
    Encoded date : UTC 2011-04-09 07:13:52
    Tagged date : UTC 2011-04-09 07:13:52

    Video
    ID : 201
    Format : MPEG-4 Visual
    Format profile : Advanced Simple@L5
    Format settings, BVOP : No
    Format settings, QPel : No
    Format settings, GMC : No warppoints
    Format settings, Matrix : Default (H.263)
    Codec ID : 20
    Duration : 3h 56mn
    Bit rate mode : Variable
    Bit rate : 650 Kbps
    Maximum bit rate : 6 080 Kbps
    Width : 640 pixels
    Height : 272 pixels
    Display aspect ratio : 2.35:1
    Frame rate mode : Variable
    Frame rate : 23.956 fps
    Original frame rate : 23.976 fps
    Minimum frame rate : 0.228 fps
    Maximum frame rate : 23.976 fps
    Color space : YUV
    Chroma subsampling : 4:2:0
    Bit depth : 8 bits
    Scan type : Progressive
    Compression mode : Lossy
    Bits/(Pixel*Frame) : 0.156
    Stream size : 1.07 GiB (87%)
    Title : Imported with GPAC 0.4.6-DEV (build 1)
    Writing library : XviD 1.2.1 (UTC 2008-12-04)
    Encoded date : UTC 2011-04-09 07:13:52
    Tagged date : UTC 2011-04-09 07:15:21

    Audio
    ID : 101
    Format : AAC
    Format/Info : Advanced Audio Codec
    Format profile : LC
    Codec ID : 40
    Duration : 3h 56mn
    Bit rate mode : Variable
    Bit rate : 96.0 Kbps
    Maximum bit rate : 139 Kbps
    Channel(s) : 2 channels
    Channel positions : Front: L R
    Sampling rate : 44.1 KHz
    Compression mode : Lossy
    Stream size : 162 MiB (13%)
    Encoded date : UTC 2011-04-09 07:15:10
    Tagged date : UTC 2011-04-09 07:15:21

    Папка со скриншотами

    Скачать


    Ещё похожие - Страсти Христовы, Король говорит!, Запрещенный прием

    Вернуться на главную




    Добро пожаловать на наш сайт!
    Здесь вы можете скачать мобильное видео в формате mp4 для просмотра на ваших смартфонах, КПК, Sony PSP, Nokia 5800 XpressMusic и др. Бесплатно и без регистрации! Предоставленные mp4 фильмы можно скачать с файлообменника. Фильмы для смартфона предоставлены в самых различных жанрах и стилях.Фильмы отличного качества. Также можете почитать статьи о различных гаджетах и фильмах. Если вы знаете название фильма, который вам нужен, то удобно использовать поиск. Загляните в категорию сериалы, не пожалеете. Регистрация не нужна. Оставляя комментарии, пожалуйста, воздержитесь от ненормативной лексики.
    Приятного просмотра!

    Подписка RSS Почтовая подписка

    Виджет для Яндекса


    Опросы

    Умеете ли вы кодировать видео для своих гаджетов?
    Да (166)
    Нет (302)
    Что такое гаджет? (87)

    Как конвертировать видео для смартфонов Нокиа 5800, 5250, N97, 5530, 5228, X6, C6 и других похожих смартфонов


    Реклама:





    Все о фильме Хоббит новости, актеры, дата выхода!
    Собираетесь в церковь? Сначала почитайте правила поведения в храме, чтобы не выглядеть глупо.

    Комментарии

    Вышел новейший смартфон Nokia N950 на MeeGo.
    Автор eanalrola (04.01.2012)
    Актуально, а главное познавательно. Здорово!!!
    Страсти Христовы
    Автор diatrankeyflux (28.12.2011)
    Дело написано, вот такие тематические статьи очень интересно прочесть.
    Фаренгейт 9/11
    Автор eabamexas (20.12.2011)
    Собираю рейтинг информационных сайтов по этой теме. Мои поздравления -...
    Как приручить дракона
    Автор paradise (09.12.2011)
    Спасибо за интересный ресурс, всегда захожу на ваше странички в свобод...
    Курьер
    Автор levitra (05.12.2011)
    hi all, what do you think about South Park?
    Обзор Nokia X6
    Автор мимо шел (19.11.2011)
    делали бы экранчик хоть 3,5 дюйма, а то маловато будет