Nokia 58xx, Драма, Исторический Просмотров: 5613

Страсти Христовы 

1 августа 2011 Опубликовал: admin

  • Обновлено15.02.2013 - 16:21

    Мобильное видео для смартфона

    Мобильное видео Страсти Христовы(.36 Kb)

    Режиссёр фильма попытался во всех подробностях восстановить предсмертные часы жизни Иисуса Христа.
    Иисус пришёл помолиться об освобождении от страданий в Гефсиманский сад и сопротивляется искушениям сатаны. Иисуса, преданного Иудой Искариотом, арестовали и привели в Иерусалим. Его обвиняют в богохульстве. Суд над Иисусом заканчивается смертным приговором. Иисуса отводят к Пилату, прокуратору Иудеи, который, выслушав приговор и поняв, что разговор идёт о политических противоречиях, передал дело царю Ироду. Но тот,в свою очередь, отправляет Иисуса обратно к Пилату и предоставляет выбор толпе. Толпа сделала выбор - смерть Иисусу. Ему дали крест и приказали пройти с ним по всему Иерусалиму. На Голгофе Иисуса распинают, и он ощущает страх - последнее искушение - что Отец покинул его. Он преодолел этот страх и, смотря на свою мать Марию, выговорил слова, которые поняла только она: "Свершилось..."

    Год выпуска: 2004
    Страна: США
    Жанр: история, драма
    Продолжительность: 127 минут
    Перевод: двухголосый, закадровый

    Режиссер: Мэл Гибсон

    Видео: 640x272 , 23.976 fps, MPEG-4, ~600 Kbps
    Аудио: 48 kHz, AAC, stereo, ~96 Kbps


    Media Info
    Format : MPEG-4
    Format profile : Base Media / Version 2
    Codec ID : mp42
    File size : 632 MiB
    Duration : 2h 6mn
    Overall bit rate : 698 Kbps
    Encoded date : UTC 2011-07-23 00:35:04
    Tagged date : UTC 2011-07-23 00:35:04

    Video
    ID : 201
    Format : MPEG-4 Visual
    Format profile : Advanced Simple@L5
    Format settings, BVOP : No
    Format settings, QPel : No
    Format settings, GMC : No warppoints
    Format settings, Matrix : Default (H.263)
    Codec ID : 20
    Duration : 2h 6mn
    Bit rate mode : Variable
    Bit rate : 600 Kbps
    Maximum bit rate : 3 168 Kbps
    Width : 640 pixels
    Height : 272 pixels
    Display aspect ratio : 2.35:1
    Frame rate mode : Variable
    Frame rate : 23.875 fps
    Original frame rate : 23.976 fps
    Minimum frame rate : 0.162 fps
    Maximum frame rate : 23.976 fps
    Color space : YUV
    Chroma subsampling : 4:2:0
    Bit depth : 8 bits
    Scan type : Progressive
    Bits/(Pixel*Frame) : 0.144
    Stream size : 543 MiB (86%)
    Title : Imported with GPAC 0.4.6-DEV (build 1)
    Writing library : XviD 1.2.1 (UTC 2008-12-04)
    Encoded date : UTC 2011-07-23 00:35:04
    Tagged date : UTC 2011-07-23 00:35:34

    Audio
    ID : 101
    Format : AAC
    Format/Info : Advanced Audio Codec
    Format version : Version 4
    Format profile : LC
    Format settings, SBR : No
    Codec ID : 40
    Duration : 2h 6mn
    Bit rate mode : Variable
    Bit rate : 96.0 Kbps
    Maximum bit rate : 141 Kbps
    Channel(s) : 2 channels
    Channel positions : Front: L R
    Sampling rate : 48.0 KHz
    Stream size : 86.8 MiB (14%)
    Encoded date : UTC 2011-07-23 00:35:31
    Tagged date : UTC 2011-07-23 00:35:34



    Скачать


    Ещё похожие - Послание, Танцующий с волками

    Вернуться на главную




    #1

    diatrankeyflux

    Дело написано, вот такие тематические статьи очень интересно прочесть.
    Добро пожаловать на наш сайт!
    Здесь вы можете скачать мобильное видео в формате mp4 для просмотра на ваших смартфонах, КПК, Sony PSP, Nokia 5800 XpressMusic и др. Бесплатно и без регистрации! Предоставленные mp4 фильмы можно скачать с файлообменника. Фильмы для смартфона предоставлены в самых различных жанрах и стилях.Фильмы отличного качества. Также можете почитать статьи о различных гаджетах и фильмах. Если вы знаете название фильма, который вам нужен, то удобно использовать поиск. Загляните в категорию сериалы, не пожалеете. Регистрация не нужна. Оставляя комментарии, пожалуйста, воздержитесь от ненормативной лексики.
    Приятного просмотра!

    Подписка RSS Почтовая подписка

    Виджет для Яндекса


    Опросы

    Умеете ли вы кодировать видео для своих гаджетов?
    Да (164)
    Нет (297)
    Что такое гаджет? (87)

    Как конвертировать видео для смартфонов Нокиа 5800, 5250, N97, 5530, 5228, X6, C6 и других похожих смартфонов


    Реклама:





    Все о фильме Хоббит новости, актеры, дата выхода!
    Собираетесь в церковь? Сначала почитайте правила поведения в храме, чтобы не выглядеть глупо.

    Комментарии

    Вышел новейший смартфон Nokia N950 на MeeGo.
    Автор eanalrola (04.01.2012)
    Актуально, а главное познавательно. Здорово!!!
    Страсти Христовы
    Автор diatrankeyflux (28.12.2011)
    Дело написано, вот такие тематические статьи очень интересно прочесть.
    Фаренгейт 9/11
    Автор eabamexas (20.12.2011)
    Собираю рейтинг информационных сайтов по этой теме. Мои поздравления -...
    Как приручить дракона
    Автор paradise (09.12.2011)
    Спасибо за интересный ресурс, всегда захожу на ваше странички в свобод...
    Курьер
    Автор levitra (05.12.2011)
    hi all, what do you think about South Park?
    Обзор Nokia X6
    Автор мимо шел (19.11.2011)
    делали бы экранчик хоть 3,5 дюйма, а то маловато будет