Nokia 58xx, Драма, Ужасы, Приключения Просмотров: 3875

Ад каннибалов 

1 августа 2011 Опубликовал: admin

  • Обновлено4.11.2011 - 20:40

    Мобильное видео для смартфона

    мобильное видео Ад каннибалов(81.03 Kb)

    Группа молодых репортёров отправилась в дебри Амазонки, чтобы снять фильм о последних каннибалах на земле и без следа пропала. Но, как оказалось, они успели сделать видео репортаж.
    В джунгли приезжает профессор Говард Монро, ему нужно найти пропавших репортёров или отснятый репортаж. Вместе со своими проводниками он долгое время пробирается сквозь джунгли в поисках своей цели и узнаёт много нового о людоедах. Оказывается, есть каннибалы двух кланов. Один называется «Якумо», а другой зовут «Древесными людьми"-наиболее жестокий клан. Герои картины пробираются к деревне клана "Якумо", проникают к ним в доверие. Попав в деревню, он начинают искать отснятый материал, но вождь клана не соглашается отдавать его. После небольшого обмана, Монро всё-таки получает плёнку. Возвратясь в Нью-Йорк, они посмотрели с трудом добытый репортаж. На отснятой плёнке видно, что съемочная группа подожгла деревню "Якумо", вторглись и оборвали священный ритуал, износиловали туземку и были жестоко убиты..После просмотра этой ужасающей картины Монро и остальные решили, что запись нужно уничтожить.


    Год выпуска: 1980
    Страна: Италия
    Жанр: ужасы, драма, приключения
    Продолжительность: 86 минут
    Перевод: одноголосый, закадровый

    Режиссер: Руджеро Деодато


    Видео: 640x360 , 25 fps, MPEG-4, ~600 Kbps
    Аудио: 48 kHz, AAC, stereo, ~96 Kbps

    Media Info
    Format : MPEG-4
    Format profile : Base Media / Version 2
    Codec ID : mp42
    File size : 458 MiB
    Duration : 1h 31mn
    Overall bit rate : 697 Kbps
    Encoded date : UTC 2011-07-22 18:20:37
    Tagged date : UTC 2011-07-22 18:20:37

    Video
    ID : 201
    Format : MPEG-4 Visual
    Format profile : Advanced Simple@L5
    Format settings, BVOP : No
    Format settings, QPel : No
    Format settings, GMC : No warppoints
    Format settings, Matrix : Default (H.263)
    Codec ID : 20
    Duration : 1h 31mn
    Bit rate mode : Variable
    Bit rate : 598 Kbps
    Maximum bit rate : 2 053 Kbps
    Width : 640 pixels
    Height : 360 pixels
    Display aspect ratio : 16:9
    Frame rate mode : Variable
    Frame rate : 25.000 fps
    Minimum frame rate : 3.571 fps
    Maximum frame rate : 25.000 fps
    Color space : YUV
    Chroma subsampling : 4:2:0
    Bit depth : 8 bits
    Scan type : Progressive
    Bits/(Pixel*Frame) : 0.104
    Stream size : 394 MiB (86%)
    Title : Imported with GPAC 0.4.6-DEV (build 1)
    Writing library : XviD 1.2.1 (UTC 2008-12-04)
    Encoded date : UTC 2011-07-22 18:20:37
    Tagged date : UTC 2011-07-22 18:20:59

    Audio
    ID : 101
    Format : AAC
    Format/Info : Advanced Audio Codec
    Format version : Version 4
    Format profile : LC
    Format settings, SBR : No
    Codec ID : 40
    Duration : 1h 31mn
    Bit rate mode : Variable
    Bit rate : 96.0 Kbps
    Maximum bit rate : 106 Kbps
    Channel(s) : 2 channels
    Channel positions : Front: L R
    Sampling rate : 48.0 KHz
    Stream size : 63.1 MiB (14%)
    Encoded date : UTC 2011-07-22 18:20:56
    Tagged date : UTC 2011-07-22 18:20:59

    Папка со скриншотами

    Скачать


    Ещё похожие - Сфера, Убойные каникулы

    Вернуться на главную




    Добро пожаловать на наш сайт!
    Здесь вы можете скачать мобильное видео в формате mp4 для просмотра на ваших смартфонах, КПК, Sony PSP, Nokia 5800 XpressMusic и др. Бесплатно и без регистрации! Предоставленные mp4 фильмы можно скачать с файлообменника. Фильмы для смартфона предоставлены в самых различных жанрах и стилях.Фильмы отличного качества. Также можете почитать статьи о различных гаджетах и фильмах. Если вы знаете название фильма, который вам нужен, то удобно использовать поиск. Загляните в категорию сериалы, не пожалеете. Регистрация не нужна. Оставляя комментарии, пожалуйста, воздержитесь от ненормативной лексики.
    Приятного просмотра!

    Подписка RSS Почтовая подписка

    Виджет для Яндекса


    Опросы

    Умеете ли вы кодировать видео для своих гаджетов?
    Да (166)
    Нет (302)
    Что такое гаджет? (87)

    Как конвертировать видео для смартфонов Нокиа 5800, 5250, N97, 5530, 5228, X6, C6 и других похожих смартфонов


    Реклама:





    Все о фильме Хоббит новости, актеры, дата выхода!
    Собираетесь в церковь? Сначала почитайте правила поведения в храме, чтобы не выглядеть глупо.

    Комментарии

    Вышел новейший смартфон Nokia N950 на MeeGo.
    Автор eanalrola (04.01.2012)
    Актуально, а главное познавательно. Здорово!!!
    Страсти Христовы
    Автор diatrankeyflux (28.12.2011)
    Дело написано, вот такие тематические статьи очень интересно прочесть.
    Фаренгейт 9/11
    Автор eabamexas (20.12.2011)
    Собираю рейтинг информационных сайтов по этой теме. Мои поздравления -...
    Как приручить дракона
    Автор paradise (09.12.2011)
    Спасибо за интересный ресурс, всегда захожу на ваше странички в свобод...
    Курьер
    Автор levitra (05.12.2011)
    hi all, what do you think about South Park?
    Обзор Nokia X6
    Автор мимо шел (19.11.2011)
    делали бы экранчик хоть 3,5 дюйма, а то маловато будет