Nokia 58xx, Драма, Мистика Просмотров: 2206

Зеленая миля 

19 июля 2011 Опубликовал: admin

  • Обновлено8.12.2011 - 16:30

    Фильмы для смартфонов и КПК

    Зеленая миля

    Фильм снят на основе произведения известного писателя Стивена Кинга.Кино вышло в прокат в 1999 году. События фильма происходят в тюрьме,в корпусе для приговоренных к смертной казни. Чтобы привести приговор в исполнение использовали электрический стул под названием "искорка". Сюжет развивается в 1935 году.
    Именно тогда в тюрьме появляется Джон Кофи,которого приговорили к смертной казни за убийство двух маленьких девочек. Он сразу становится объектом всеобщего внимания не только из-за своего огромного роста и телосложения, но и из-за своих сверхъестественных способностей. В ходе событий казнят двоих приговоренных заключенных. Джон очень переживает из-за событий происходящих вокруг. Впоследствии выясняется, что Джон не виновен в убийстве, а даже наоборот. Он-"Божье сотворение",которое послано на землю помогать людям. Поэтому он принимает и не оспаривает обвинение и свою скорую смерть на электрическом стуле. В некоторых моментах создается впечатление, что речь идет об Иисусе Христе. Джон помогает избавиться от болезни мочевого пузыря исполнителю приговора, вылечить опухоль мозга жене человека, который приговорил его к смерти. Он спасает маленького мышонка и дарит ему жизнь. Фильм пронизан самыми разнообразными ощущениями, от самых положительных до глубоко отрицательных эмоций. А вот какие эмоции испытывать к тем или иным героям - решать только вам.

    Год выпуска: 1999
    Страна: США
    Жанр: фэнтези, драма, криминал
    Продолжительность: 189 минут
    Перевод: дубляж

    Режиссер: Фрэнк Дарабонт

    Видео: 640x360 , 23.976 fps, MPEG-4, ~600 Kbps
    Аудио: 48 kHz, AAC, stereo, ~96 Kbps

    Media Info
    Format : MPEG-4
    Format profile : Base Media / Version 2
    Codec ID : mp42
    File size : 942 MiB
    Duration : 3h 8mn
    Overall bit rate : 698 Kbps
    Encoded date : UTC 2011-07-17 16:27:00
    Tagged date : UTC 2011-07-17 16:27:00

    Video
    ID : 201
    Format : MPEG-4 Visual
    Format profile : Advanced Simple@L5
    Format settings, BVOP : No
    Format settings, QPel : No
    Format settings, GMC : No warppoints
    Format settings, Matrix : Default (H.263)
    Codec ID : 20
    Duration : 3h 8mn
    Bit rate mode : Variable
    Bit rate : 600 Kbps
    Maximum bit rate : 6 743 Kbps
    Width : 640 pixels
    Height : 360 pixels
    Display aspect ratio : 16:9
    Frame rate mode : Variable
    Frame rate : 23.902 fps
    Original frame rate : 23.976 fps
    Minimum frame rate : 0.261 fps
    Maximum frame rate : 23.976 fps
    Color space : YUV
    Chroma subsampling : 4:2:0
    Bit depth : 8 bits
    Scan type : Progressive
    Bits/(Pixel*Frame) : 0.109
    Stream size : 809 MiB (86%)
    Title : Imported with GPAC 0.4.6-DEV (build 1)
    Writing library : XviD 1.2.1 (UTC 2008-12-04)
    Encoded date : UTC 2011-07-17 16:27:00
    Tagged date : UTC 2011-07-17 16:27:50

    Audio
    ID : 101
    Format : AAC
    Format/Info : Advanced Audio Codec
    Format version : Version 4
    Format profile : LC
    Format settings, SBR : No
    Codec ID : 40
    Duration : 3h 8mn
    Bit rate mode : Variable
    Bit rate : 96.0 Kbps
    Maximum bit rate : 136 Kbps
    Channel(s) : 2 channels
    Channel positions : Front: L R
    Sampling rate : 48.0 KHz
    Stream size : 129 MiB (14%)
    Encoded date : UTC 2011-07-17 16:27:42
    Tagged date : UTC 2011-07-17 16:27:50


    Папка со скриншотами

    Скачать

    Ещё похожие - Пророк, Рок-н-рольщик

    Вернуться на главную




    Добро пожаловать на наш сайт!
    Здесь вы можете скачать мобильное видео в формате mp4 для просмотра на ваших смартфонах, КПК, Sony PSP, Nokia 5800 XpressMusic и др. Бесплатно и без регистрации! Предоставленные mp4 фильмы можно скачать с файлообменника. Фильмы для смартфона предоставлены в самых различных жанрах и стилях.Фильмы отличного качества. Также можете почитать статьи о различных гаджетах и фильмах. Если вы знаете название фильма, который вам нужен, то удобно использовать поиск. Загляните в категорию сериалы, не пожалеете. Регистрация не нужна. Оставляя комментарии, пожалуйста, воздержитесь от ненормативной лексики.
    Приятного просмотра!

    Подписка RSS Почтовая подписка

    Виджет для Яндекса


    Опросы

    Умеете ли вы кодировать видео для своих гаджетов?
    Да (165)
    Нет (300)
    Что такое гаджет? (87)

    Как конвертировать видео для смартфонов Нокиа 5800, 5250, N97, 5530, 5228, X6, C6 и других похожих смартфонов


    Реклама:





    Все о фильме Хоббит новости, актеры, дата выхода!
    Собираетесь в церковь? Сначала почитайте правила поведения в храме, чтобы не выглядеть глупо.

    Комментарии

    Вышел новейший смартфон Nokia N950 на MeeGo.
    Автор eanalrola (04.01.2012)
    Актуально, а главное познавательно. Здорово!!!
    Страсти Христовы
    Автор diatrankeyflux (28.12.2011)
    Дело написано, вот такие тематические статьи очень интересно прочесть.
    Фаренгейт 9/11
    Автор eabamexas (20.12.2011)
    Собираю рейтинг информационных сайтов по этой теме. Мои поздравления -...
    Как приручить дракона
    Автор paradise (09.12.2011)
    Спасибо за интересный ресурс, всегда захожу на ваше странички в свобод...
    Курьер
    Автор levitra (05.12.2011)
    hi all, what do you think about South Park?
    Обзор Nokia X6
    Автор мимо шел (19.11.2011)
    делали бы экранчик хоть 3,5 дюйма, а то маловато будет