Сфера 

15 июня 2011 Опубликовал: andre

  • Обновлено5.11.2011 - 21:03

    Кино для смартфонов

    Сфера

    На дне океана найден космический корабль, упавший туда лет 300 тому назад. Рядом с находкой сооружается подводная станция, и на нее прибывает команда ученых-специалистов: доктор Норман Гудмэн, доктор Элизабет Гальперин, доктор Гарри Эдамс, доктор Тэд Филдинг и другие коллеги. Возглавляет отряд капитан Хэролд Барнс.
    Вскоре ученые обнаруживают по соседству со станцией гигантский блестящий шар. Им удается проникнуть внутрь сферы, хотя никаких дверей или каких-либо иных проемов не наблюдалось. После этого начались кошмары, потому что сфера проецировала в реальность сны и желания тех, кто побывал внутри нее…

    Год выпуска: 1998
    Страна: США
    Жанр: ужасы, фантастика, триллер, драма, детектив
    Продолжительность: 134 минуты
    Перевод: полное дублирование

    Режиссер: Барри Левинсон

    Видео: 640x264, 23.948 fps, MPEG-4, ~600 Kbps
    Аудио: 44 kHz, AAC, stereo, ~96 Kbps

    Media Info
    Format : MPEG-4
    Format profile : Base Media / Version 2
    Codec ID : mp42
    File size : 721 MiB
    Duration : 2h 14mn
    Overall bit rate : 751 Kbps
    Encoded date : UTC 2011-04-08 19:45:15
    Tagged date : UTC 2011-04-08 19:45:15

    Video
    ID : 201
    Format : MPEG-4 Visual
    Format profile : Advanced Simple@L5
    Format settings, BVOP : No
    Format settings, QPel : No
    Format settings, GMC : No warppoints
    Format settings, Matrix : Default (H.263)
    Codec ID : 20
    Duration : 2h 14mn
    Bit rate mode : Variable
    Bit rate : 653 Kbps
    Maximum bit rate : 8 440 Kbps
    Width : 640 pixels
    Height : 264 pixels
    Display aspect ratio : 2.40:1
    Frame rate mode : Variable
    Frame rate : 23.911 fps
    Original frame rate : 23.976 fps
    Minimum frame rate : 0.235 fps
    Maximum frame rate : 23.976 fps
    Color space : YUV
    Chroma subsampling : 4:2:0
    Bit depth : 8 bits
    Scan type : Progressive
    Bits/(Pixel*Frame) : 0.162
    Stream size : 626 MiB (87%)
    Title : Imported with GPAC 0.4.6-DEV (build 1)
    Writing library : XviD 1.2.1 (UTC 2008-12-04)
    Encoded date : UTC 2011-04-08 19:45:15
    Tagged date : UTC 2011-04-08 19:45:54

    Audio
    ID : 101
    Format : AAC
    Format/Info : Advanced Audio Codec
    Format version : Version 4
    Format profile : LC
    Format settings, SBR : No
    Codec ID : 40
    Duration : 2h 14mn
    Bit rate mode : Variable
    Bit rate : 96.0 Kbps
    Maximum bit rate : 117 Kbps
    Channel(s) : 2 channels
    Channel positions : Front: L R
    Sampling rate : 44.1 KHz
    Stream size : 92.2 MiB (13%)
    Encoded date : UTC 2011-04-08 19:45:50
    Tagged date : UTC 2011-04-08 19:45:54

    Папка со скриншотами" target="_blank" rel="nofollow">Папка со скриншотами

    Скачать


    Ещё похожие - Трон: Наследие, Начало

    Вернуться на главную




    Добро пожаловать на наш сайт!
    Здесь вы можете скачать мобильное видео в формате mp4 для просмотра на ваших смартфонах, КПК, Sony PSP, Nokia 5800 XpressMusic и др. Бесплатно и без регистрации! Предоставленные mp4 фильмы можно скачать с файлообменника. Фильмы для смартфона предоставлены в самых различных жанрах и стилях.Фильмы отличного качества. Также можете почитать статьи о различных гаджетах и фильмах. Если вы знаете название фильма, который вам нужен, то удобно использовать поиск. Загляните в категорию сериалы, не пожалеете. Регистрация не нужна. Оставляя комментарии, пожалуйста, воздержитесь от ненормативной лексики.
    Приятного просмотра!

    Подписка RSS Почтовая подписка

    Виджет для Яндекса


    Опросы

    Умеете ли вы кодировать видео для своих гаджетов?
    Да (165)
    Нет (302)
    Что такое гаджет? (87)

    Как конвертировать видео для смартфонов Нокиа 5800, 5250, N97, 5530, 5228, X6, C6 и других похожих смартфонов


    Реклама:





    Все о фильме Хоббит новости, актеры, дата выхода!
    Собираетесь в церковь? Сначала почитайте правила поведения в храме, чтобы не выглядеть глупо.

    Комментарии

    Вышел новейший смартфон Nokia N950 на MeeGo.
    Автор eanalrola (04.01.2012)
    Актуально, а главное познавательно. Здорово!!!
    Страсти Христовы
    Автор diatrankeyflux (28.12.2011)
    Дело написано, вот такие тематические статьи очень интересно прочесть.
    Фаренгейт 9/11
    Автор eabamexas (20.12.2011)
    Собираю рейтинг информационных сайтов по этой теме. Мои поздравления -...
    Как приручить дракона
    Автор paradise (09.12.2011)
    Спасибо за интересный ресурс, всегда захожу на ваше странички в свобод...
    Курьер
    Автор levitra (05.12.2011)
    hi all, what do you think about South Park?
    Обзор Nokia X6
    Автор мимо шел (19.11.2011)
    делали бы экранчик хоть 3,5 дюйма, а то маловато будет