Прирожденные убийцы 

3 августа 2011 Опубликовал: admin

  • Обновлено15.02.2013 - 16:19

    Мобильное видео для смартфона

    Прирожденные убийцы

    Легендарный Квентин Тарантино написал один из своих самых кровавых сюжетов для Оливера Стоуна. Меллори и Микки - молодые и влюблённые массовые убийцы, они без ума друг от друга. Они ненавидят человечество и разъезжают по Америке в середине девяностых, жестоко убивая всех, кто попадётся им на пути. Вскоре парочку поймали и посадили в тюрьму. Тем не менее, череда странных и трагичных совпадений предоставляет шанс этой ненормальной парочке убийц вдоволь поубивать. И они в свою очередь не пренебрегли этой возможностью и оторвались на полную катушку. Скандальная, безумная, потрясающая картина, снятая как будто в состоянии наркотического эффекта. Эпатажный и супержестокий фильм, не для слабонервных.
    Фильм стал популярным не только благодаря множеству безжалостных сцен, но ещё и из-за того, что появилось много сторонников – людей, которые совершают реальные преступления после многократных просмотров.

    Год выпуска: 1994
    Страна: США
    Жанр: боевик, триллер, драма, мелодрама, криминал
    Продолжительность: 119 минут
    Перевод: многоголосый, закадровый

    Режиссер: Оливер Стоун


    Видео: 640x360 , 23.976 fps, MPEG-4, ~600 Kbps
    Аудио: 48 kHz, AAC, stereo, ~96 Kbps

    Media Info
    Format : MPEG-4
    Format profile : Base Media / Version 2
    Codec ID : mp42
    File size : 594 MiB
    Duration : 1h 58mn
    Overall bit rate : 698 Kbps
    Encoded date : UTC 2011-07-21 21:30:26
    Tagged date : UTC 2011-07-21 21:30:26

    Video
    ID : 201
    Format : MPEG-4 Visual
    Format profile : Advanced Simple@L5
    Format settings, BVOP : No
    Format settings, QPel : No
    Format settings, GMC : No warppoints
    Format settings, Matrix : Default (H.263)
    Codec ID : 20
    Duration : 1h 58mn
    Bit rate mode : Variable
    Bit rate : 600 Kbps
    Maximum bit rate : 3 736 Kbps
    Width : 640 pixels
    Height : 360 pixels
    Display aspect ratio : 16:9
    Frame rate mode : Variable
    Frame rate : 23.942 fps
    Original frame rate : 23.976 fps
    Minimum frame rate : 0.393 fps
    Maximum frame rate : 23.976 fps
    Color space : YUV
    Chroma subsampling : 4:2:0
    Bit depth : 8 bits
    Scan type : Progressive
    Bits/(Pixel*Frame) : 0.109
    Stream size : 510 MiB (86%)
    Title : Imported with GPAC 0.4.6-DEV (build 1)
    Writing library : XviD 1.2.1 (UTC 2008-12-04)
    Encoded date : UTC 2011-07-21 21:30:26
    Tagged date : UTC 2011-07-21 21:31:00

    Audio
    ID : 101
    Format : AAC
    Format/Info : Advanced Audio Codec
    Format version : Version 4
    Format profile : LC
    Format settings, SBR : No
    Codec ID : 40
    Duration : 1h 58mn
    Bit rate mode : Variable
    Bit rate : 96.0 Kbps
    Maximum bit rate : 126 Kbps
    Channel(s) : 2 channels
    Channel positions : Front: L R
    Sampling rate : 48.0 KHz
    Stream size : 81.5 MiB (14%)
    Encoded date : UTC 2011-07-21 21:30:56
    Tagged date : UTC 2011-07-21 21:31:00

    Скачать


    Ещё похожие - Связь, Сфера

    Вернуться на главную




    Добро пожаловать на наш сайт!
    Здесь вы можете скачать мобильное видео в формате mp4 для просмотра на ваших смартфонах, КПК, Sony PSP, Nokia 5800 XpressMusic и др. Бесплатно и без регистрации! Предоставленные mp4 фильмы можно скачать с файлообменника. Фильмы для смартфона предоставлены в самых различных жанрах и стилях.Фильмы отличного качества. Также можете почитать статьи о различных гаджетах и фильмах. Если вы знаете название фильма, который вам нужен, то удобно использовать поиск. Загляните в категорию сериалы, не пожалеете. Регистрация не нужна. Оставляя комментарии, пожалуйста, воздержитесь от ненормативной лексики.
    Приятного просмотра!

    Подписка RSS Почтовая подписка

    Виджет для Яндекса


    Опросы

    Умеете ли вы кодировать видео для своих гаджетов?
    Да (166)
    Нет (304)
    Что такое гаджет? (87)

    Как конвертировать видео для смартфонов Нокиа 5800, 5250, N97, 5530, 5228, X6, C6 и других похожих смартфонов


    Реклама:





    Все о фильме Хоббит новости, актеры, дата выхода!
    Собираетесь в церковь? Сначала почитайте правила поведения в храме, чтобы не выглядеть глупо.

    Комментарии

    Вышел новейший смартфон Nokia N950 на MeeGo.
    Автор eanalrola (04.01.2012)
    Актуально, а главное познавательно. Здорово!!!
    Страсти Христовы
    Автор diatrankeyflux (28.12.2011)
    Дело написано, вот такие тематические статьи очень интересно прочесть.
    Фаренгейт 9/11
    Автор eabamexas (20.12.2011)
    Собираю рейтинг информационных сайтов по этой теме. Мои поздравления -...
    Как приручить дракона
    Автор paradise (09.12.2011)
    Спасибо за интересный ресурс, всегда захожу на ваше странички в свобод...
    Курьер
    Автор levitra (05.12.2011)
    hi all, what do you think about South Park?
    Обзор Nokia X6
    Автор мимо шел (19.11.2011)
    делали бы экранчик хоть 3,5 дюйма, а то маловато будет