Nokia 58xx, Триллер, Детектив Просмотров: 2766

Код Да Винчи (расширенная версия) 

3 августа 2011 Опубликовал: andre

  • Обновлено15.02.2013 - 16:17

    Мобильное видео для смартфонов

    Код Да Винчи

    В Париже в Лувре при загадочных обстоятельствах произошло убийство куратора музея Жак Соньер. Но незадолго до своей смерти он нарисовал таинственное послание. Для изучения этих зашифрованных символов был приглашён специалист в области символики Роберт Ленгдон.
    Роберт сразу же начинает разгадку таинственного послания и не подозревает, как далеко приведут его исследования. К Роберту присоединяется сотрудница полиции, внучка убитого Сонье, Софи Неве. Как выясняется, к этому причастны члены тайного древнего общества, которые, в свою очередь, охотятся за декларацией независимости. Вместе, рискуя своими жизнями, они начинают искать ответ в работах Леонардо да Винчи, в которых спрятаны целые серии странных головоломок. Путь Роберта и Софи полон приключений, но с каждым шагом они всё ближе к разгадке загадочного кода..

    Год выпуска: 2006
    Страна: США
    Жанр: триллер, детектив
    Продолжительность: 176 минут
    Перевод: два голоса, закадровый

    Режиссер: Рон Ховард


    Видео: 640x272 , 29.808 fps, MPEG-4, ~580 Kbps
    Аудио: 48 kHz, AAC, stereo, ~96 Kbps

    Media Info
    Format : MPEG-4
    Format profile : Base Media / Version 2
    Codec ID : mp42
    File size : 849 MiB
    Duration : 2h 54mn
    Overall bit rate : 680 Kbps
    Encoded date : UTC 2011-07-26 23:25:47
    Tagged date : UTC 2011-07-26 23:25:47

    Video
    ID : 201
    Format : MPEG-4 Visual
    Format profile : Advanced Simple@L5
    Format settings, BVOP : No
    Format settings, QPel : No
    Format settings, GMC : No warppoints
    Format settings, Matrix : Default (H.263)
    Codec ID : 20
    Duration : 2h 54mn
    Bit rate mode : Variable
    Bit rate : 582 Kbps
    Maximum bit rate : 9 825 Kbps
    Width : 640 pixels
    Height : 272 pixels
    Display aspect ratio : 2.35:1
    Frame rate mode : Variable
    Frame rate : 29.808 fps
    Original frame rate : 29.970 fps
    Minimum frame rate : 0.244 fps
    Maximum frame rate : 29.970 fps
    Color space : YUV
    Chroma subsampling : 4:2:0
    Bit depth : 8 bits
    Scan type : Progressive
    Bits/(Pixel*Frame) : 0.112
    Stream size : 726 MiB (85%)
    Title : Imported with GPAC 0.4.6-DEV (build 1)
    Writing library : XviD 1.2.1 (UTC 2008-12-04)
    Encoded date : UTC 2011-07-26 23:25:47
    Tagged date : UTC 2011-07-26 23:26:31

    Audio
    ID : 101
    Format : AAC
    Format/Info : Advanced Audio Codec
    Format version : Version 4
    Format profile : LC
    Format settings, SBR : No
    Codec ID : 40
    Duration : 2h 54mn
    Bit rate mode : Variable
    Bit rate : 96.0 Kbps
    Maximum bit rate : 110 Kbps
    Channel(s) : 2 channels
    Channel positions : Front: L R
    Sampling rate : 48.0 KHz
    Stream size : 120 MiB (14%)
    Encoded date : UTC 2011-07-26 23:26:26
    Tagged date : UTC 2011-07-26 23:26:31

    Папка со скриншотами

    Скачать


    Ещё похожие - Шерлок Холмс, Солт

    Вернуться на главную




    Добро пожаловать на наш сайт!
    Здесь вы можете скачать мобильное видео в формате mp4 для просмотра на ваших смартфонах, КПК, Sony PSP, Nokia 5800 XpressMusic и др. Бесплатно и без регистрации! Предоставленные mp4 фильмы можно скачать с файлообменника. Фильмы для смартфона предоставлены в самых различных жанрах и стилях.Фильмы отличного качества. Также можете почитать статьи о различных гаджетах и фильмах. Если вы знаете название фильма, который вам нужен, то удобно использовать поиск. Загляните в категорию сериалы, не пожалеете. Регистрация не нужна. Оставляя комментарии, пожалуйста, воздержитесь от ненормативной лексики.
    Приятного просмотра!

    Подписка RSS Почтовая подписка

    Виджет для Яндекса


    Опросы

    Умеете ли вы кодировать видео для своих гаджетов?
    Да (166)
    Нет (302)
    Что такое гаджет? (87)

    Как конвертировать видео для смартфонов Нокиа 5800, 5250, N97, 5530, 5228, X6, C6 и других похожих смартфонов


    Реклама:





    Все о фильме Хоббит новости, актеры, дата выхода!
    Собираетесь в церковь? Сначала почитайте правила поведения в храме, чтобы не выглядеть глупо.

    Комментарии

    Вышел новейший смартфон Nokia N950 на MeeGo.
    Автор eanalrola (04.01.2012)
    Актуально, а главное познавательно. Здорово!!!
    Страсти Христовы
    Автор diatrankeyflux (28.12.2011)
    Дело написано, вот такие тематические статьи очень интересно прочесть.
    Фаренгейт 9/11
    Автор eabamexas (20.12.2011)
    Собираю рейтинг информационных сайтов по этой теме. Мои поздравления -...
    Как приручить дракона
    Автор paradise (09.12.2011)
    Спасибо за интересный ресурс, всегда захожу на ваше странички в свобод...
    Курьер
    Автор levitra (05.12.2011)
    hi all, what do you think about South Park?
    Обзор Nokia X6
    Автор мимо шел (19.11.2011)
    делали бы экранчик хоть 3,5 дюйма, а то маловато будет