Nokia 58xx, Для взрослых Просмотров: 14565

Глубокая глотка 

3 августа 2011 Опубликовал: andre

  • Обновлено4.11.2011 - 20:10

    Мобильное видео для смартфонов

    Глубокая глотка

    Фильм является одним из первых примеров широкого демонстрирования открытой порнографии и не раз становился предметом многих разбирательств в суде.
    Главная героиня фильмы не в силах получить сексуальную удовлетворенность. Со своими наболевшими проблемами она обращается к специалисту, который, в свою очередь, обнаружил проблему. Оказалось, что клитор у девушки располагается в глубине горла. Линда обрадовалась поставленному диагнозу и, не тратя времени даром, начинает осваивать своеобразную технику орального секса, которая в кинокартине называют "глубока глотка". Она пробует эту технику на различных мужчинах, но вскоре находит себе подходящего партнёра с нужным размером члена.


    Год выпуска: 1972
    Страна: США
    Жанр: для взрослых, комедия
    Продолжительность: 61 минута
    Перевод: без перевода(не нашел ни перевода, ни субтитров)

    Режиссер: Джерард Дамиано


    Видео: 480x360 , 29.970 fps, MPEG-4, ~550 Kbps
    Аудио: 48 kHz, AAC, mono, ~48 Kbps

    Media Info
    Format : MPEG-4
    Format profile : Base Media / Version 2
    Codec ID : mp42
    File size : 260 MiB
    Duration : 1h 0mn
    Overall bit rate : 600 Kbps
    Encoded date : UTC 2011-07-27 00:59:57
    Tagged date : UTC 2011-07-27 00:59:57

    Video
    ID : 201
    Format : MPEG-4 Visual
    Format profile : Advanced Simple@L5
    Format settings, BVOP : No
    Format settings, QPel : No
    Format settings, GMC : No warppoints
    Format settings, Matrix : Default (H.263)
    Codec ID : 20
    Duration : 1h 0mn
    Bit rate mode : Variable
    Bit rate : 549 Kbps
    Maximum bit rate : 1 914 Kbps
    Width : 480 pixels
    Height : 360 pixels
    Display aspect ratio : 4:3
    Frame rate mode : Variable
    Frame rate : 29.946 fps
    Original frame rate : 29.970 fps
    Minimum frame rate : 0.422 fps
    Maximum frame rate : 29.970 fps
    Color space : YUV
    Chroma subsampling : 4:2:0
    Bit depth : 8 bits
    Scan type : Progressive
    Bits/(Pixel*Frame) : 0.106
    Stream size : 238 MiB (92%)
    Title : Imported with GPAC 0.4.6-DEV (build 1)
    Writing library : XviD 1.2.1 (UTC 2008-12-04)
    Encoded date : UTC 2011-07-27 00:59:57
    Tagged date : UTC 2011-07-27 01:00:09

    Audio
    ID : 101
    Format : AAC
    Format/Info : Advanced Audio Codec
    Format version : Version 4
    Format profile : LC
    Format settings, SBR : No
    Codec ID : 40
    Duration : 1h 0mn
    Bit rate mode : Variable
    Bit rate : 48.0 Kbps
    Maximum bit rate : 59.3 Kbps
    Channel(s) : 1 channel
    Channel positions : Front: C
    Sampling rate : 48.0 KHz
    Stream size : 20.8 MiB (8%)
    Encoded date : UTC 2011-07-27 01:00:07
    Tagged date : UTC 2011-07-27 01:00:09

    Папка со скриншотами

    Скачать


    Ещё похожие - Калигула

    Вернуться на главную




    #1
    admin

    admin

    По сути - вроде бы обычная порнуха. Но есть большое НО - здесь есть сюжет. И довольно таки прикольный. Из-за года выпуска - 1972 - прикольно вдвойне. Эдакая ретро-порнушка :)
    Сам смотрел с удовольствием.
    #2

    tuk

    В самом деле - интересная порнуха. Надо будет еще ретро поискать smile
    Добро пожаловать на наш сайт!
    Здесь вы можете скачать мобильное видео в формате mp4 для просмотра на ваших смартфонах, КПК, Sony PSP, Nokia 5800 XpressMusic и др. Бесплатно и без регистрации! Предоставленные mp4 фильмы можно скачать с файлообменника. Фильмы для смартфона предоставлены в самых различных жанрах и стилях.Фильмы отличного качества. Также можете почитать статьи о различных гаджетах и фильмах. Если вы знаете название фильма, который вам нужен, то удобно использовать поиск. Загляните в категорию сериалы, не пожалеете. Регистрация не нужна. Оставляя комментарии, пожалуйста, воздержитесь от ненормативной лексики.
    Приятного просмотра!

    Подписка RSS Почтовая подписка

    Виджет для Яндекса


    Опросы

    Умеете ли вы кодировать видео для своих гаджетов?
    Да (165)
    Нет (298)
    Что такое гаджет? (87)

    Как конвертировать видео для смартфонов Нокиа 5800, 5250, N97, 5530, 5228, X6, C6 и других похожих смартфонов


    Реклама:





    Все о фильме Хоббит новости, актеры, дата выхода!
    Собираетесь в церковь? Сначала почитайте правила поведения в храме, чтобы не выглядеть глупо.

    Комментарии

    Вышел новейший смартфон Nokia N950 на MeeGo.
    Автор eanalrola (04.01.2012)
    Актуально, а главное познавательно. Здорово!!!
    Страсти Христовы
    Автор diatrankeyflux (28.12.2011)
    Дело написано, вот такие тематические статьи очень интересно прочесть.
    Фаренгейт 9/11
    Автор eabamexas (20.12.2011)
    Собираю рейтинг информационных сайтов по этой теме. Мои поздравления -...
    Как приручить дракона
    Автор paradise (09.12.2011)
    Спасибо за интересный ресурс, всегда захожу на ваше странички в свобод...
    Курьер
    Автор levitra (05.12.2011)
    hi all, what do you think about South Park?
    Обзор Nokia X6
    Автор мимо шел (19.11.2011)
    делали бы экранчик хоть 3,5 дюйма, а то маловато будет