Nokia 58xx, Триллер, Детектив Просмотров: 1867

Солт 

28 августа 2011 Опубликовал: admin

  • Обновлено4.11.2011 - 18:24

    Мобильное видео для смартфонов и КПК

    Солт

    «Солт» - динамичный боевик с непредсказуемым сюжетом. В центре событий – очаровательная сотрудница ЦРУ Солт Эвелин, чью роль блистательно сыграла непревзойденная американская актриса Анджелина Джоли.

    Солт чудом удается избегнуть ареста: против нее выдвигают серьезные обвинения в тайном сотрудничестве с российской разведкой. Кто эта загадочная женщина на самом деле? Почему бросилась в бега? Все спецслужбы США объявили настоящую охоту на Солт и даже самые близкие коллеги и друзья начинают в ней сомневаться. Солт удивительным образом удается избегать преследований силовых структур, она уверенно и целенаправленно двигается к четко поставленной цели. Но какова эта цель? До последней минуты сложно понять на кого работает Эвелин Солт, кто друг, а кто враг, чем завершиться развязка этой насыщенной событиями истории.


    Год выпуска: 2010
    Страна: США
    Жанр: триллер, криминал, детектив
    Продолжительность: 100 минут
    Перевод: дубляж
    Режиссёр: Филлип Нойс
    Актёры: Анджелина Джоли, Лив Шрайбер, Чиветел Эджиофор, Даниэль Ольбрыхский, Аугуст Диль, Дэниэл Пирс, Хант Блок, Андре Брогер, Олек Крупа, Кэссиди Хинкль


    Видео: 640x272 , 23.976 fps, MPEG-4, ~600 Kbps
    Аудио: 48 kHz, AAC, stereo, ~96 Kbps


    Media Info
    Format : MPEG-4
    Format profile : Base Media / Version 2
    Codec ID : mp42
    File size : 499 MiB
    Duration : 1h 40mn
    Overall bit rate : 698 Kbps
    Encoded date : UTC 2011-08-24 17:25:17
    Tagged date : UTC 2011-08-24 17:25:17

    Video
    ID : 201
    Format : MPEG-4 Visual
    Format profile : Advanced Simple@L5
    Format settings, BVOP : No
    Format settings, QPel : No
    Format settings, GMC : No warppoints
    Format settings, Matrix : Default (H.263)
    Codec ID : 20
    Duration : 1h 40mn
    Bit rate mode : Variable
    Bit rate : 600 Kbps
    Maximum bit rate : 3 213 Kbps
    Width : 640 pixels
    Height : 272 pixels
    Display aspect ratio : 2.35:1
    Frame rate mode : Variable
    Frame rate : 23.612 fps
    Original frame rate : 23.976 fps
    Minimum frame rate : 0.252 fps
    Maximum frame rate : 23.976 fps
    Color space : YUV
    Chroma subsampling : 4:2:0
    Bit depth : 8 bits
    Scan type : Progressive
    Bits/(Pixel*Frame) : 0.146
    Stream size : 429 MiB (86%)
    Title : Imported with GPAC 0.4.6-DEV (build 1)
    Writing library : XviD 1.2.1 (UTC 2008-12-04)
    Encoded date : UTC 2011-08-24 17:25:17
    Tagged date : UTC 2011-08-24 17:25:51

    Audio
    ID : 101
    Format : AAC
    Format/Info : Advanced Audio Codec
    Format version : Version 4
    Format profile : LC
    Format settings, SBR : No
    Codec ID : 40
    Duration : 1h 40mn
    Bit rate mode : Variable
    Bit rate : 96.0 Kbps
    Maximum bit rate : 161 Kbps
    Channel(s) : 2 channels
    Channel positions : Front: L R
    Sampling rate : 48.0 KHz
    Stream size : 68.7 MiB (14%)
    Encoded date : UTC 2011-08-24 17:25:48
    Tagged date : UTC 2011-08-24 17:25:51

    Папка со скриншотами

    Скачать


    Ещё похожие - Казино Рояль, Начало

    Вернуться на главную




    Добро пожаловать на наш сайт!
    Здесь вы можете скачать мобильное видео в формате mp4 для просмотра на ваших смартфонах, КПК, Sony PSP, Nokia 5800 XpressMusic и др. Бесплатно и без регистрации! Предоставленные mp4 фильмы можно скачать с файлообменника. Фильмы для смартфона предоставлены в самых различных жанрах и стилях.Фильмы отличного качества. Также можете почитать статьи о различных гаджетах и фильмах. Если вы знаете название фильма, который вам нужен, то удобно использовать поиск. Загляните в категорию сериалы, не пожалеете. Регистрация не нужна. Оставляя комментарии, пожалуйста, воздержитесь от ненормативной лексики.
    Приятного просмотра!

    Подписка RSS Почтовая подписка

    Виджет для Яндекса


    Опросы

    Умеете ли вы кодировать видео для своих гаджетов?
    Да (166)
    Нет (302)
    Что такое гаджет? (87)

    Как конвертировать видео для смартфонов Нокиа 5800, 5250, N97, 5530, 5228, X6, C6 и других похожих смартфонов


    Реклама:





    Все о фильме Хоббит новости, актеры, дата выхода!
    Собираетесь в церковь? Сначала почитайте правила поведения в храме, чтобы не выглядеть глупо.

    Комментарии

    Вышел новейший смартфон Nokia N950 на MeeGo.
    Автор eanalrola (04.01.2012)
    Актуально, а главное познавательно. Здорово!!!
    Страсти Христовы
    Автор diatrankeyflux (28.12.2011)
    Дело написано, вот такие тематические статьи очень интересно прочесть.
    Фаренгейт 9/11
    Автор eabamexas (20.12.2011)
    Собираю рейтинг информационных сайтов по этой теме. Мои поздравления -...
    Как приручить дракона
    Автор paradise (09.12.2011)
    Спасибо за интересный ресурс, всегда захожу на ваше странички в свобод...
    Курьер
    Автор levitra (05.12.2011)
    hi all, what do you think about South Park?
    Обзор Nokia X6
    Автор мимо шел (19.11.2011)
    делали бы экранчик хоть 3,5 дюйма, а то маловато будет