PSP, Боевик, Мистика Просмотров: 1927

Пророк 

9 августа 2011 Опубликовал: admin

  • Обновлено4.11.2011 - 19:59

    пророк

    У Криса Джонсона есть тайна, которая отравляет ему жизнь: он предсказывает недалекое грядущее. Утомившись от нескончаемого интереса правительства и мед центров, пытающихся отгадать природу его умопомрачительных возможностей, Крис ложится на дно.
    Под выдуманным именованием он работает в Лас-Вегасе, где веселит публику дешевенькими трюками. Однако когда группа террористов грозит Лос-Анджелесу, особому агенту Калли Феррис будет необходимо напрячь все силы, чтобы убедить Криса предупредить катастрофу.


    Год выпуска: 2007
    Страна: США
    Жанр: фантастика, фэнтези, боевик
    Продолжительность: 91 минута
    Перевод: дубляж

    Режиссер: Ли Тамахори

    Видео: 480x208 , 25 fps, MPEG-4, ~600 Kbps
    Аудио: 48 kHz, AAC, stereo, ~126 Kbps

    Media Info
    Format : MPEG-4
    Format profile : Base Media
    Codec ID : isom
    File size : 508 MiB
    Duration : 1h 31mn
    Overall bit rate : 773 Kbps
    Encoded date : UTC 2008-03-24 19:56:37
    Tagged date : UTC 2008-03-24 19:56:37

    Video
    ID : 1
    Format : AVC
    Format/Info : Advanced Video Codec
    Format profile : Main@L3.0
    Format settings, CABAC : Yes
    Format settings, ReFrames : 3 frames
    Codec ID : avc1
    Codec ID/Info : Advanced Video Coding
    Duration : 1h 31mn
    Bit rate mode : Variable
    Bit rate : 640 Kbps
    Maximum bit rate : 3 370 Kbps
    Width : 480 pixels
    Height : 208 pixels
    Display aspect ratio : 2.35:1
    Original display aspect ratio : 2.35:1
    Frame rate mode : Constant
    Frame rate : 25.000 fps
    Color space : YUV
    Chroma subsampling : 4:2:0
    Bit depth : 8 bits
    Scan type : Progressive
    Bits/(Pixel*Frame) : 0.256
    Stream size : 421 MiB (83%)
    Writing library : x264 core 56 svn-667M
    Encoding settings : cabac=1 / ref=2 / deblock=1:0:0 / analyse=0x1:0x131 / me=umh / subme=7 / brdo=1 / mixed_ref=1 / me_range=16 / chroma_me=1 / trellis=1 / 8x8dct=0 / cqm=0 / deadzone=21,11 / chroma_qp_offset=0 / threads=2 / nr=0 / decimate=1 / mbaff=0 / bframes=3 / b_pyramid=0 / b_adapt=1 / b_bias=0 / direct=3 / wpredb=1 / bime=1 / keyint=250 / keyint_min=25 / scenecut=40(pre) / rc=2pass / bitrate=640 / ratetol=1.0 / rceq='blurCplx^(1-qComp)' / qcomp=0.60 / qpmin=10 / qpmax=51 / qpstep=4 / cplxblur=20.0 / qblur=0.5 / ip_ratio=1.40 / pb_ratio=1.30
    Encoded date : UTC 2008-03-24 19:56:37
    Tagged date : UTC 2008-03-24 19:57:49

    Audio
    ID : 2
    Format : AAC
    Format/Info : Advanced Audio Codec
    Format version : Version 4
    Format profile : LC
    Format settings, SBR : No
    Codec ID : 40
    Duration : 1h 31mn
    Bit rate mode : Variable
    Bit rate : 129 Kbps
    Maximum bit rate : 152 Kbps
    Channel(s) : 2 channels
    Channel positions : Front: L R
    Sampling rate : 48.0 KHz
    Stream size : 84.9 MiB (17%)
    Encoded date : UTC 2008-03-24 19:57:38
    Tagged date : UTC 2008-03-24 19:57:49

    Папка со скриншотами

    Скачать


    Ещё похожие - Воины света, Зеленая миля

    Вернуться на главную




    Добро пожаловать на наш сайт!
    Здесь вы можете скачать мобильное видео в формате mp4 для просмотра на ваших смартфонах, КПК, Sony PSP, Nokia 5800 XpressMusic и др. Бесплатно и без регистрации! Предоставленные mp4 фильмы можно скачать с файлообменника. Фильмы для смартфона предоставлены в самых различных жанрах и стилях.Фильмы отличного качества. Также можете почитать статьи о различных гаджетах и фильмах. Если вы знаете название фильма, который вам нужен, то удобно использовать поиск. Загляните в категорию сериалы, не пожалеете. Регистрация не нужна. Оставляя комментарии, пожалуйста, воздержитесь от ненормативной лексики.
    Приятного просмотра!

    Подписка RSS Почтовая подписка

    Виджет для Яндекса


    Опросы

    Умеете ли вы кодировать видео для своих гаджетов?
    Да (166)
    Нет (303)
    Что такое гаджет? (87)

    Как конвертировать видео для смартфонов Нокиа 5800, 5250, N97, 5530, 5228, X6, C6 и других похожих смартфонов


    Реклама:





    Все о фильме Хоббит новости, актеры, дата выхода!
    Собираетесь в церковь? Сначала почитайте правила поведения в храме, чтобы не выглядеть глупо.

    Комментарии

    Вышел новейший смартфон Nokia N950 на MeeGo.
    Автор eanalrola (04.01.2012)
    Актуально, а главное познавательно. Здорово!!!
    Страсти Христовы
    Автор diatrankeyflux (28.12.2011)
    Дело написано, вот такие тематические статьи очень интересно прочесть.
    Фаренгейт 9/11
    Автор eabamexas (20.12.2011)
    Собираю рейтинг информационных сайтов по этой теме. Мои поздравления -...
    Как приручить дракона
    Автор paradise (09.12.2011)
    Спасибо за интересный ресурс, всегда захожу на ваше странички в свобод...
    Курьер
    Автор levitra (05.12.2011)
    hi all, what do you think about South Park?
    Обзор Nokia X6
    Автор мимо шел (19.11.2011)
    делали бы экранчик хоть 3,5 дюйма, а то маловато будет