PSP, Семейный, Комедия, Наше кино Просмотров: 2380

Усатый нянь 

25 августа 2011 Опубликовал: admin

  • Обновлено4.11.2011 - 19:01

    Мобильное видео для PSP

    Усатый нянь

    Допризывник, молодой раздолбай Кеша ни на какой работе долго не задерживается. И специально созданная комиссия идёт на смелый эксперимент - устраивает Кешу ночным нянем в детский сад.
    И дети помогают Кеше расстаться с детством..


    Год выпуска: 1977
    Страна: СССР
    Жанр: комедия
    Продолжительность: 70 минут


    Актёры: Сергей Проханов, Людмила Шагалова, Елизавета Уварова, Марина Матвеенко, Надежда Самсонова, Александр Сажин, Валерий Кисленко, Сергей Бачурский, Сергей Крол, Вадим Александров
    Режиссёр: Владимир Грамматиков


    Видео: 480x208 , 25 fps, MPEG-4, ~600 Kbps
    Аудио: 48 kHz, AAC, stereo, ~80 Kbps


    Media Info
    Format : MPEG-4
    Format profile : Base Media
    Codec ID : isom
    File size : 372 MiB
    Duration : 1h 10mn
    Overall bit rate : 740 Kbps
    Encoded date : UTC 2010-03-29 10:38:04
    Tagged date : UTC 2010-03-29 10:38:04

    Video
    ID : 1
    Format : AVC
    Format/Info : Advanced Video Codec
    Format profile : Main@L3.0
    Format settings, CABAC : Yes
    Format settings, ReFrames : 2 frames
    Codec ID : avc1
    Codec ID/Info : Advanced Video Coding
    Duration : 1h 10mn
    Bit rate mode : Variable
    Bit rate : 672 Kbps
    Maximum bit rate : 2 095 Kbps
    Width : 480 pixels
    Height : 208 pixels
    Display aspect ratio : 2.35:1
    Frame rate mode : Constant
    Frame rate : 25.000 fps
    Color space : YUV
    Chroma subsampling : 4:2:0
    Bit depth : 8 bits
    Scan type : Progressive
    Bits/(Pixel*Frame) : 0.269
    Stream size : 338 MiB (91%)
    Writing library : x264 core 64 r971kMod ead8857
    Encoding settings : cabac=1 / ref=2 / deblock=1:0:0 / analyse=0x1:0 / me=dia / subme=1 / psy_rd=0.0:0.0 / brdo=0 / mixed_ref=1 / me_range=16 / chroma_me=1 / trellis=0 / 8x8dct=0 / cqm=0 / deadzone=21,11 / chroma_qp_offset=0 / threads=2 / nr=0 / decimate=1 / mbaff=0 / bframes=3 / b_pyramid=0 / b_adapt=1 / b_bias=0 / direct=1 / wpredb=0 / bime=0 / keyint=250 / keyint_min=25 / scenecut=40(pre) / rc=crf / crf=21.0000 / qcomp=0.60 / qpmin=10 / qpmax=51 / qpstep=4 / ip_ratio=1.40 / pb_ratio=1.30 / aq=1:1.00
    Encoded date : UTC 2010-03-29 10:38:04
    Tagged date : UTC 2010-03-29 10:38:27

    Audio
    ID : 2
    Format : AAC
    Format/Info : Advanced Audio Codec
    Format version : Version 4
    Format profile : LC
    Format settings, SBR : Yes
    Format settings, PS : No
    Codec ID : 40
    Duration : 1h 10mn
    Bit rate mode : Variable
    Bit rate : 66.15 Kbps
    Maximum bit rate : 84.8 Kbps
    Channel(s) : 2 channels
    Channel positions : Front: L R
    Sampling rate : 48.0 KHz
    Stream size : 32.8 MiB (9%)
    Encoded date : UTC 2010-03-29 10:38:26
    Tagged date : UTC 2010-03-29 10:38:27

    Папка со скриншотами на radikal.ru

    Скачать


    Ещё похожие - Курьер, Супертеща для неудачника


    Каталог сайтов Web-Dir.Info, добавить сайт + анализ индекса цитирования Яндекс тИЦ и Google PageRank (ПР)

    Вернуться на главную




    Добро пожаловать на наш сайт!
    Здесь вы можете скачать мобильное видео в формате mp4 для просмотра на ваших смартфонах, КПК, Sony PSP, Nokia 5800 XpressMusic и др. Бесплатно и без регистрации! Предоставленные mp4 фильмы можно скачать с файлообменника. Фильмы для смартфона предоставлены в самых различных жанрах и стилях.Фильмы отличного качества. Также можете почитать статьи о различных гаджетах и фильмах. Если вы знаете название фильма, который вам нужен, то удобно использовать поиск. Загляните в категорию сериалы, не пожалеете. Регистрация не нужна. Оставляя комментарии, пожалуйста, воздержитесь от ненормативной лексики.
    Приятного просмотра!

    Подписка RSS Почтовая подписка

    Виджет для Яндекса


    Опросы

    Умеете ли вы кодировать видео для своих гаджетов?
    Да (165)
    Нет (299)
    Что такое гаджет? (87)

    Как конвертировать видео для смартфонов Нокиа 5800, 5250, N97, 5530, 5228, X6, C6 и других похожих смартфонов


    Реклама:





    Все о фильме Хоббит новости, актеры, дата выхода!
    Собираетесь в церковь? Сначала почитайте правила поведения в храме, чтобы не выглядеть глупо.

    Комментарии

    Вышел новейший смартфон Nokia N950 на MeeGo.
    Автор eanalrola (04.01.2012)
    Актуально, а главное познавательно. Здорово!!!
    Страсти Христовы
    Автор diatrankeyflux (28.12.2011)
    Дело написано, вот такие тематические статьи очень интересно прочесть.
    Фаренгейт 9/11
    Автор eabamexas (20.12.2011)
    Собираю рейтинг информационных сайтов по этой теме. Мои поздравления -...
    Как приручить дракона
    Автор paradise (09.12.2011)
    Спасибо за интересный ресурс, всегда захожу на ваше странички в свобод...
    Курьер
    Автор levitra (05.12.2011)
    hi all, what do you think about South Park?
    Обзор Nokia X6
    Автор мимо шел (19.11.2011)
    делали бы экранчик хоть 3,5 дюйма, а то маловато будет