PSP, Криминал, Драма Просмотров: 2363

Детки 

3 августа 2011 Опубликовал: admin

  • Обновлено15.02.2013 - 16:15

    Мобильное видео для PSP

    детки

    Один обычный день из жизни подростков, свободно болтающихся дворам Манхэттена. Наркотики, грязная и неприличная ругань, секс. Несовершеннолетний мальчик заражает своих партнёрш СПИДом. Фильм-дебют известного американского оператора Ларри Кларка, очень заинтересованного проблемой подросткового секса.



    Год выпуска: 1995
    Страна: США
    Жанр: драма, криминал
    Продолжительность: 91 минута
    Перевод: два голоса, закадровый

    Режиссер: Ларри Кларк


    Видео: 480x272 , 25 fps, MPEG-4, ~780 Kbps
    Аудио: 48 kHz, AAC, stereo, ~128 Kbps

    http//www.kinopoisk.ru/rating/6384.gif

    Media Info
    Format : MPEG-4
    Format profile : Base Media
    Codec ID : isom
    File size : 569 MiB
    Duration : 1h 26mn
    Overall bit rate : 917 Kbps
    Encoded date : UTC 2008-11-19 18:24:24
    Tagged date : UTC 2008-11-19 18:24:24

    Video
    ID : 1
    Format : AVC
    Format/Info : Advanced Video Codec
    Format profile : Main@L3.0
    Format settings, CABAC : Yes
    Format settings, ReFrames : 2 frames
    Format settings, GOP : N=1
    Codec ID : avc1
    Codec ID/Info : Advanced Video Coding
    Duration : 1h 26mn
    Bit rate mode : Variable
    Bit rate : 784 Kbps
    Maximum bit rate : 2 630 Kbps
    Width : 480 pixels
    Height : 272 pixels
    Display aspect ratio : 16:9
    Frame rate mode : Constant
    Frame rate : 25.000 fps
    Color space : YUV
    Chroma subsampling : 4:2:0
    Bit depth : 8 bits
    Scan type : Progressive
    Bits/(Pixel*Frame) : 0.240
    Stream size : 487 MiB (86%)
    Writing library : x264 core 64 r971kMod ead8857
    Encoding settings : cabac=1 / ref=2 / deblock=1:-2:-1 / analyse=0x1:0x130 / me=esa / subme=7 / psy_rd=1.0:0.0 / brdo=1 / mixed_ref=1 / me_range=16 / chroma_me=1 / trellis=2 / 8x8dct=0 / cqm=0 / deadzone=21,11 / chroma_qp_offset=-2 / threads=2 / nr=0 / decimate=0 / mbaff=0 / bframes=3 / b_pyramid=0 / b_adapt=1 / b_bias=0 / direct=3 / wpredb=1 / bime=1 / keyint=250 / keyint_min=25 / scenecut=40(pre) / rc=2pass / bitrate=784 / ratetol=1.0 / qcomp=0.60 / qpmin=10 / qpmax=51 / qpstep=4 / cplxblur=20.0 / qblur=0.5 / ip_ratio=1.40 / pb_ratio=1.30 / aq=1:1.00
    Encoded date : UTC 2008-11-19 18:24:24
    Tagged date : UTC 2008-11-19 18:25:42

    Audio
    ID : 2
    Format : AAC
    Format/Info : Advanced Audio Codec
    Format version : Version 4
    Format profile : LC
    Format settings, SBR : No
    Codec ID : 40
    Duration : 1h 26mn
    Bit rate mode : Variable
    Bit rate : 129 Kbps
    Maximum bit rate : 161 Kbps
    Channel(s) : 2 channels
    Channel positions : Front: L R
    Sampling rate : 48.0 KHz
    Stream size : 79.9 MiB (14%)
    Encoded date : UTC 2008-11-19 18:25:39
    Tagged date : UTC 2008-11-19 18:25:42

    Папка со скриншотами

    Скачать


    Ещё похожие - Прирожденные убийцы, Связь

    Вернуться на главную




    Добро пожаловать на наш сайт!
    Здесь вы можете скачать мобильное видео в формате mp4 для просмотра на ваших смартфонах, КПК, Sony PSP, Nokia 5800 XpressMusic и др. Бесплатно и без регистрации! Предоставленные mp4 фильмы можно скачать с файлообменника. Фильмы для смартфона предоставлены в самых различных жанрах и стилях.Фильмы отличного качества. Также можете почитать статьи о различных гаджетах и фильмах. Если вы знаете название фильма, который вам нужен, то удобно использовать поиск. Загляните в категорию сериалы, не пожалеете. Регистрация не нужна. Оставляя комментарии, пожалуйста, воздержитесь от ненормативной лексики.
    Приятного просмотра!

    Подписка RSS Почтовая подписка

    Виджет для Яндекса


    Опросы

    Умеете ли вы кодировать видео для своих гаджетов?
    Да (166)
    Нет (304)
    Что такое гаджет? (87)

    Как конвертировать видео для смартфонов Нокиа 5800, 5250, N97, 5530, 5228, X6, C6 и других похожих смартфонов


    Реклама:





    Все о фильме Хоббит новости, актеры, дата выхода!
    Собираетесь в церковь? Сначала почитайте правила поведения в храме, чтобы не выглядеть глупо.

    Комментарии

    Вышел новейший смартфон Nokia N950 на MeeGo.
    Автор eanalrola (04.01.2012)
    Актуально, а главное познавательно. Здорово!!!
    Страсти Христовы
    Автор diatrankeyflux (28.12.2011)
    Дело написано, вот такие тематические статьи очень интересно прочесть.
    Фаренгейт 9/11
    Автор eabamexas (20.12.2011)
    Собираю рейтинг информационных сайтов по этой теме. Мои поздравления -...
    Как приручить дракона
    Автор paradise (09.12.2011)
    Спасибо за интересный ресурс, всегда захожу на ваше странички в свобод...
    Курьер
    Автор levitra (05.12.2011)
    hi all, what do you think about South Park?
    Обзор Nokia X6
    Автор мимо шел (19.11.2011)
    делали бы экранчик хоть 3,5 дюйма, а то маловато будет