Крот 1,2 

13 июня 2011 Опубликовал: admin

  • Обновлено7.05.2013 - 10:47

    Мобильное видео для смартфонов и Sony PSP

    Крот

    Оперативного работника уголовного розыска Сергея Кузьмичева посылают в Москву с целью внедрения в одну из преступных группировок. Его первое задание представляется не очень сложным. Молодой парень из провинции, якобы приехавший на заработки, успешно с ним справляется.
    Однако, по воле случая, он оказывается в самом пекле бандитских разборок. Получив со временем статус серьезного уголовного авторитета, он внедряется во все более влиятельные группировки, и, войдя в доверие, вступает в борьбу с мощной, отлаженной системой криминального мира.

    Крот 1

    Год выпуска: 2001
    Страна: Россия
    Жанр: драма, криминал
    Продолжительность: 610 минут, 12 серий

    Крот 2

    Год выпуска: 2002
    Страна: Россия
    Жанр: драма, криминал
    Продолжительность: 586 минут, 12 серий

    Режиссер: Эрнест Ясан

    Видео: 368x272 , 25 fps, MPEG-4, ~550 Kbps
    Аудио: 48 kHz, AAC, stereo, ~96 Kbps

    Media Info
    Format : MPEG-4
    Format profile : Base Media
    Codec ID : isom
    Overall bit rate : 650 Kbps
    Encoded date : UTC 2011-06-10 13:49:39
    Tagged date : UTC 2011-06-10 13:49:39

    Video
    ID : 1
    Format : AVC
    Format/Info : Advanced Video Codec
    Format profile : Main@L3.0
    Format settings, CABAC : Yes
    Format settings, ReFrames : 3 frames
    Codec ID : avc1
    Codec ID/Info : Advanced Video Coding
    Duration : 51mn 3s
    Bit rate mode : Variable
    Bit rate : 550 Kbps
    Maximum bit rate : 1 864 Kbps
    Width : 368 pixels
    Height : 272 pixels
    Display aspect ratio : 4:3
    Frame rate mode : Constant
    Frame rate : 25.000 fps
    Color space : YUV
    Chroma subsampling : 4:2:0
    Bit depth : 8 bits
    Scan type : Progressive
    Bits/(Pixel*Frame) : 0.220
    Stream size : 201 MiB (85%)
    Title : Imported with GPAC 0.4.6-DEV (build 1)
    Writing library : x264 core 92 r1510 33d382a
    Encoding settings : cabac=1 / ref=3 / deblock=1:-1:0 / analyse=0x1:0x131 / me=umh / subme=7 / psy=1 / psy_rd=1.00:0.20 / mixed_ref=1 / me_range=16 / chroma_me=1 / trellis=2 / 8x8dct=0 / cqm=0 / deadzone=21,11 / fast_pskip=0 / chroma_qp_offset=-3 / threads=3 / sliced_threads=0 / nr=0 / decimate=0 / interlaced=0 / constrained_intra=0 / bframes=3 / b_pyramid=0 / b_adapt=2 / b_bias=0 / direct=3 / wpredb=1 / wpredp=2 / keyint=250 / keyint_min=25 / scenecut=40 / intra_refresh=0 / rc_lookahead=60 / rc=2pass / mbtree=1 / bitrate=550 / ratetol=1.0 / qcomp=0.60 / qpmin=10 / qpmax=51 / qpstep=4 / cplxblur=20.0 / qblur=0.5 / ip_ratio=1.40 / aq=1:1.00
    Encoded date : UTC 2011-06-10 13:49:39
    Tagged date : UTC 2011-06-10 13:49:50

    Audio
    ID : 2
    Format : AAC
    Format/Info : Advanced Audio Codec
    Format version : Version 4
    Format profile : LC
    Format settings, SBR : No
    Codec ID : 40
    Duration : 51mn 3s
    Bit rate mode : Variable
    Bit rate : 96.0 Kbps
    Maximum bit rate : 108 Kbps
    Channel(s) : 2 channels
    Channel positions : Front: L R
    Sampling rate : 48.0 KHz
    Stream size : 35.1 MiB (15%)
    Encoded date : UTC 2011-06-10 13:49:49
    Tagged date : UTC 2011-06-10 13:49:50

    Папка со скриншотами

    Папка со всеми сериями


    Похожие сериалы - Бандитский Петербург, Бригада




    голые знаменитости Фото голых звезд.

    Вернуться на главную




    Добро пожаловать на наш сайт!
    Здесь вы можете скачать мобильное видео в формате mp4 для просмотра на ваших смартфонах, КПК, Sony PSP, Nokia 5800 XpressMusic и др. Бесплатно и без регистрации! Предоставленные mp4 фильмы можно скачать с файлообменника. Фильмы для смартфона предоставлены в самых различных жанрах и стилях.Фильмы отличного качества. Также можете почитать статьи о различных гаджетах и фильмах. Если вы знаете название фильма, который вам нужен, то удобно использовать поиск. Загляните в категорию сериалы, не пожалеете. Регистрация не нужна. Оставляя комментарии, пожалуйста, воздержитесь от ненормативной лексики.
    Приятного просмотра!

    Подписка RSS Почтовая подписка

    Виджет для Яндекса


    Опросы

    Умеете ли вы кодировать видео для своих гаджетов?
    Да (166)
    Нет (304)
    Что такое гаджет? (87)

    Как конвертировать видео для смартфонов Нокиа 5800, 5250, N97, 5530, 5228, X6, C6 и других похожих смартфонов


    Реклама:





    Все о фильме Хоббит новости, актеры, дата выхода!
    Собираетесь в церковь? Сначала почитайте правила поведения в храме, чтобы не выглядеть глупо.

    Комментарии

    Вышел новейший смартфон Nokia N950 на MeeGo.
    Автор eanalrola (04.01.2012)
    Актуально, а главное познавательно. Здорово!!!
    Страсти Христовы
    Автор diatrankeyflux (28.12.2011)
    Дело написано, вот такие тематические статьи очень интересно прочесть.
    Фаренгейт 9/11
    Автор eabamexas (20.12.2011)
    Собираю рейтинг информационных сайтов по этой теме. Мои поздравления -...
    Как приручить дракона
    Автор paradise (09.12.2011)
    Спасибо за интересный ресурс, всегда захожу на ваше странички в свобод...
    Курьер
    Автор levitra (05.12.2011)
    hi all, what do you think about South Park?
    Обзор Nokia X6
    Автор мимо шел (19.11.2011)
    делали бы экранчик хоть 3,5 дюйма, а то маловато будет